[NSBC] Watashi, Teiji de Kaerimasu E09 [WEBDL] [1080p]

Category:
Date:
2019-06-12 01:39 UTC
Submitter:
Seeders:
24
Information:
TlNCQy50bw==
Leechers:
0
File size:
528.8 MiB
Completed:
794
Info hash:
3246fc6d79a50cd8d254767e1ef10e081c8b0ec7
![POSTER](http://img.topddl.net/images/1ac62d16a07a3294013f8d9f215a113e.png "") ![Thumbnails](http://img.topddl.net/images/85da653cb2b66bf0a9605606698b7e89.jpg "") ``` General Unique ID : 66603221977757097242335369221620266944 (0x321B505FAE1E641D659E3F5B0F6E77C0) Complete name : [NSBC] Watashi, Teiji de Kaerimasu E09 [WEBDL] [1080p].mkv Format : Matroska Format version : Version 4 File size : 529 MiB Duration : 48 min 4 s Overall bit rate : 1 538 kb/s Movie name : [NSBC] Watashi, Teiji de Kaerimasu E09 [WEBDL] [1080p] Encoded by : NoNe | NSBC Encoded date : UTC 2019-06-12 01:24:24 Writing application : mkvmerge v34.0.0 ('Sight and Seen') 64-bit Writing library : libebml v1.3.7 + libmatroska v1.5.0 Copyright : NSBC Comment : NoNe | NSBC DATE_RECORDED : 2019 Video ID : 1 Format : AVC Format/Info : Advanced Video Codec Format profile : [email protected] Format settings : CABAC / 4 Ref Frames Format settings, CABAC : Yes Format settings, RefFrames : 4 frames Codec ID : V_MPEG4/ISO/AVC Duration : 48 min 3 s Bit rate : 1 472 kb/s Width : 1 920 pixels Height : 1 080 pixels Display aspect ratio : 16:9 Frame rate mode : Constant Frame rate : 29.970 (30000/1001) FPS Color space : YUV Chroma subsampling : 4:2:0 Bit depth : 8 bits Scan type : Progressive Bits/(Pixel*Frame) : 0.024 Stream size : 506 MiB (96%) Title : [NSBC] Writing library : Zencoder Video Encoding System Default : No Forced : No Color range : Limited Color primaries : BT.709 Transfer characteristics : BT.709 Matrix coefficients : BT.709 Audio ID : 2 Format : AAC LC Format/Info : Advanced Audio Codec Low Complexity Codec ID : A_AAC-2 Duration : 48 min 4 s Bit rate : 63.8 kb/s Channel(s) : 2 channels Channel layout : L R Sampling rate : 48.0 kHz Frame rate : 46.875 FPS (1024 SPF) Compression mode : Lossy Delay relative to video : -67 ms Stream size : 21.9 MiB (4%) Title : [NSBC] Language : Japanese Default : Yes Forced : No ```

File list

  • [NSBC] Watashi, Teiji de Kaerimasu E09 [WEBDL] [1080p].mkv (528.8 MiB)